Bhavesh Joshi Superhero (2018) Hindi 1080p UntoucheD WEB-HD AVC AAC DD 2.0 Team Telly Exclusive


Poster
DcGs5BmVQAE9ttC.jpg


iMDB
Imdb Picture Title: Bhavesh Joshi Superhero
Year: 2018
Runtime: 154 minutes
Votes: 678
Rating: 7.8/10
Language: Hindi
Country: India
All Genres: Action, Drama
Plot Outline: Bhavesh Joshi Superhero is an action film about a young man who wants to continue doing the right and challenge the wrong. And on this journey, he discovers that he's destined to do bigger things, which will transform him from a common man into a superhero.
Director: Vikramaditya Motwane
Writing By: Vikramaditya Motwane,Anurag Kashyap,Abhay Koranne,
Produced By: Vikas Bahl,Dipa De Motwane,Sumit Gyanchandaney,Anurag Kashyap,Madhu Mantena Varma,Shibasish Sarkar,Ranjan Singh,
Music: Amit Trivedi
Cast:
Harshvardhan Kapoor as Sikander Khanna (Sikku)
Priyanshu Painyuli as Bhavesh Joshi
Nishikant Kamat as Rana
Nishikant Kamat as Rana
Ashish Verma as Rajat
Rajiv Kachroo as Company Boss
Trailers:
Bhavesh Joshi Superhero - Official Trailer



Details
Name:Bhavesh Joshi Superhero (2018) Hindi 1080p UntoucheD WEB-HD AVC AAC DD 2.0 Team Telly Exclusive
Description:
Bhavesh Joshi Superhero (2018) Hindi 1080p UntoucheD WEB-HD AVC AAC DD 2.0 Team Telly Exclusive




Format                                   : MPEG-4
Format profile                           : Base Media
Codec ID                                 : isom (isom/iso2/avc1/mp41)
File size                                : 4.66 GiB
Duration                                 : 2 h 25 min
Overall bit rate mode                    : Constant
Overall bit rate                         : 4 568 kb/s
Description                              : An extraordinary story of an ordinary superhero who cannot fly or swing, but fights for justice by exposing corruption and unmasking the truth.


Video
ID                                       : 1
Format                                   : AVC
Format/Info                              : Advanced Video Codec
Format profile                           : Main@L4
Format settings                          : CABAC / 1 Ref Frames
Format settings, CABAC                   : Yes
Format settings, RefFrames               : 1 frame
Format settings, GOP                     : M=1, N=100
Codec ID                                 : avc1
Codec ID/Info                            : Advanced Video Coding
Duration                                 : 2 h 25 min
Bit rate mode                            : Constant
Bit rate                                 : 4 500 kb/s
Width                                    : 1 920 pixels
Height                                   : 1 080 pixels
Display aspect ratio                     : 16:9
Frame rate mode                          : Constant
Frame rate                               : 25.000 FPS
Color space                              : YUV
Chroma subsampling                       : 4:2:0
Bit depth                                : 8 bits
Scan type                                : Progressive
Bits/(Pixel*Frame)                       : 0.087
Stream size                              : 4.59 GiB (99%)

Audio
ID                                       : 2
Format                                   : AAC
Format/Info                              : Advanced Audio Codec
Format profile                           : LC
Codec ID                                 : mp4a-40-2
Duration                                 : 2 h 25 min
Duration_LastFrame                       : 1 ms
Bit rate mode                            : Constant
Bit rate                                 : 61.4 kb/s
Channel(s)                               : 2 channels
Channel positions                        : Front: L R
Sampling rate                            : 48.0 kHz
Frame rate                               : 46.875 FPS (1024 SPF)
Compression mode                         : Lossy
Stream size                              : 64.1 MiB (1%)
Default                                  : Yes
Alternate group                          : 1



qsw7c.th.png qs63s.th.png qsDqz.th.png qst8v.th.png qsXW3.th.png qsjyM.th.png qsCDE.th.png
Category:Movies > Bollywood
Lang:Hindi
Total Size:4.66 GB



|| Download This Movie Via Single Resumable Links Size: 4.66 GB ||

Direct-1 Google Drive | Direct-2 | Direct-3 |

Watch Online Click Here

Post a Comment

0 Comments