Unfreedom (2014) Hindi 1080p NF WEB-DL AVC AC3 DD 5.1 Esub Team Jio Exclusive


Poster


iMDB
Title: Unfreedom
Year: 2014
Runtime: 102 minutes
Votes: 1616
Rating: 6.3/10
Language: English, Hindi
Country: USA, India
All Genres: Crime, Drama, Romance, Thriller
Plot Outline: UNFREEDOM is an urgent contemporary thriller about a society torn apart by political, religious, and sexual turmoil. Shifting between New York and New Delhi, the film juxtaposes two powerful and unflinching stories about religious fundamentalism and intolerance, one of which follows a Muslim terrorist attempting to silence a liberal Muslim scholar, while the other is about a young woman who defies her devout father and escapes an arranged marriage because she is secretly embroiled in a taboo lesbian romance. In this searing portrait of the polarized world we live in, all four characters go to their absolute limit-and beyond-in their struggle to defend their deeply-held and conflicting viewpoints on freedom, faith, family and love.
Tagline: How far Would You Go For What You Believe?
Director: Raj Amit Kumar
Writing By: Damon J. Taylor,Raj Amit Kumar,Raj Amit Kumar,Adam Davis,Kamran Iqbal,
Produced By: Aftab Asghar,Deepa Bajaj,Ruchi Bhimani,Roli Chaturvedi,Shakir Ali Khan,Raj Amit Kumar,Gerard Weisbecker,Miriam Weisbecker,
Music: Jesse Kotansky Wayne Sharpe
Cast:
Victor Banerjee as Fareed
Adil Hussain as Devraj
Bhanu Uday as Husain
Preeti Gupta as Leela
Bhavani Lee as Sakhi
Ankur Vikal as Najeeb
Seema Rahmani as Chandra
Samrat Chakrabarti as Anees
Danae Nason as Jana
Andrew Platner as Mitch
Trailers:
Unfreedom



Details
Name:
Unfreedom (2014) Hindi 1080p NF WEB-DL AVC AC3 DD 5.1 Esub Team Jio Exclusive
Description:
Unfreedom (2014) Hindi 1080p NF WEB-DL AVC AC3 DD 5.1 Esub Team Jio Exclusive

bae711e0f2cccd76f9105dba05ee268b.jpg


General
Format                                   : MPEG-4
Format profile                           : Base Media
Codec ID                                 : isom (isom/iso2/avc1/mp41)
File size                                : 3.31 GiB
Duration                                 : 1 h 43 min
Overall bit rate                         : 4 583 kb/s
Writing application                      : Lavf58.12.100

Video
ID                                       : 1
Format                                   : AVC
Format/Info                              : Advanced Video Codec
Format profile                           : Main@L4
Format settings                          : CABAC / 3 Ref Frames
Format settings, CABAC                   : Yes
Format settings, ReFrames                : 3 frames
Codec ID                                 : avc1
Codec ID/Info                            : Advanced Video Coding
Duration                                 : 1 h 43 min
Bit rate                                 : 4 385 kb/s
Width                                    : 1 920 pixels
Height                                   : 1 080 pixels
Display aspect ratio                     : 16:9
Frame rate mode                          : Constant
Frame rate                               : 23.976 FPS
Color space                              : YUV
Chroma subsampling                       : 4:2:0
Bit depth                                : 8 bits
Scan type                                : Progressive
Bits/(Pixel*Frame)                       : 0.088
Stream size                              : 3.16 GiB (96%)

Audio
ID                                       : 2
Format                                   : E-AC-3
Format/Info                              : Enhanced Audio Coding 3
Codec ID                                 : ec-3
Duration                                 : 1 h 43 min
Bit rate mode                            : Constant
Bit rate                                 : 192 kb/s
Channel(s)                               : 6 channels
Channel positions                        : Front: L C R, Side: L R, LFE
Sampling rate                            : 48.0 kHz
Frame rate                               : 187.500 FPS (256 SPF)
Bit depth                                : 16 bits
Compression mode                         : Lossy
Stream size                              : 142 MiB (4%)
Service kind                             : Complete Main
Default                                  : Yes
Alternate group                          : 1



  
 
 
 
 
 
 
 
 
 
 
Category:Movies > WEB-HD
Lang:Hindi
Total Size:3.31 GB



Esub

|| Download This Movie Via Single Resumable Links Size: 3.31 GB ||

Direct-1 Google Drive | Direct-2 | Direct-3 |

Watch Online Click Here

Post a Comment

0 Comments