Hook (1991) BluRay 720p x264 {Dual Audio} [Hindi - English] - Hon3yHD


Poster


iMDB
Imdb Picture Title: Hook
Year: 1991
Runtime: 142 minutes
Votes: 205157
Rating: 6.7/10
Language: English
Country: USA
All Genres: Adventure, Comedy, Family, Fantasy
Plot Outline: Peter Pan (Williams) has grown up to be a cut-throat merger and acquisitions lawyer, and is married to Wendy's granddaughter. Captain Hook (Hoffman) kidnaps his children, and Peter returns to Never Land with Tinkerbell (Roberts). With the help of her and the Lost Boys, he must remember how to be Peter Pan again in order to save his children by battling with Captain Hook once again. Written by Ed Sutton <esutton@mindspring.com>
Tagline: What if Peter Pan grew up?
Director: Steven Spielberg
Writing By: J.M. Barrie,J.M. Barrie,James V. Hart,Nick Castle,James V. Hart,Malia Scotch Marmo,
Produced By: Gary Adelson,Craig Baumgarten,Bruce Cohen,Dodi Fayed,James V. Hart,Kathleen Kennedy,Malia Scotch Marmo,Frank Marshall,Gerald R. Molen,
Music: John Williams
Cast:
Dustin Hoffman as Captain Hook
Robin Williams as Peter Banning
Julia Roberts as Tinkerbell
Bob Hoskins as Smee
Maggie Smith as Granny Wendy
Caroline Goodall as Moira Banning
Charlie Korsmo as Jack 'Jackie' Banning
Amber Scott as Maggie Banning
Laurel Cronin as Liza, Wendy's Housekeeper
Phil Collins as Inspector Good
Trailers:
Hook



Details
Name:Hook.1991.BluRay.720p.x264.{Dual.Audio}.[Hindi Org-English].-.Hon3yHD
Description:
Hook (1991) BluRay 720p x264 {Dual Audio} [Hindi - English] - Hon3yHD



Format                      : Matroska
Format version              : Version 4 / Version 2
File size                   : 1.44 GiB
Duration                    : 2 h 21 min
Overall bit rate            : 1 459 kb/s
Movie name                  : Hammer@Hon3yHD

Video
ID                          : 1
Format                      : AVC
Format/Info                 : Advanced Video Codec
Format profile              : High@L4.1
Format settings             : CABAC / 8 Ref Frames
Format settings, CABAC      : Yes
Format settings, ReFrames   : 8 frames
Codec ID                    : V_MPEG4/ISO/AVC
Duration                    : 2 h 21 min
Bit rate                    : 1 200 kb/s
Width                       : 1 280 pixels
Height                      : 532 pixels
Display aspect ratio        : 2.40:1
Frame rate mode             : Constant
Frame rate                  : 23.976 (24000/1001) FPS

Audio #1
ID                          : 2
Format                      : AAC
Format/Info                 : Advanced Audio Codec
Format profile              : LC
Codec ID                    : A_AAC-2
Duration                    : 2 h 21 min
Bit rate                    : 128 kb/s
Channel(s)                  : 2 channels
Channel positions           : Front: L R
Sampling rate               : 48.0 kHz
Frame rate                  : 46.875 FPS (1024 SPF)
Compression mode            : Lossy
Delay relative to video     : -21 ms
Stream size                 : 130 MiB (9%)
Title                       : Stereo
Language                    : Hindi

Audio #2
ID                          : 3
Format                      : AAC
Format/Info                 : Advanced Audio Codec
Format profile              : LC
Codec ID                    : A_AAC-2
Duration                    : 2 h 21 min
Bit rate                    : 128 kb/s
Channel(s)                  : 2 channels
Channel positions           : Front: L R
Sampling rate               : 48.0 kHz
Frame rate                  : 46.875 FPS (1024 SPF)
Compression mode            : Lossy
Delay relative to video     : -21 ms
Stream size                 : 130 MiB (9%)
Title                       : Stereo
Language                    : English

       
Category:Movies > Hollywood Dub
Lang:Hindi
Total Size:1.44 GB



|| Download This Movie Via Single Resumable Links Size: 1.44 GB ||

Direct-1 Google Drive | Direct-2 | Direct-3 |

Watch Online Click Here

Post a Comment

0 Comments