The Legend of Zorro (2005) BRRip 720p Dual Audio [English-Hindi] Movie Free Download


Poster


iMDB
Imdb Picture Title: The Legend of Zorro
Year: 2005
Runtime: 129 minutes
Votes: 82045
Rating: 5.9/10
Language: Spanish, English
Country: USA
All Genres: Action, Adventure, Romance, Thriller, Western
Plot Outline: The Legendary Zorro goes off on another adventure to protect the future of California and its citizens. This time, he fights against evil-doers with the help of his beautiful wife, Elena, and their precocious young son, Joaquin. Alejandro De LaVega is torn between two worlds: his life as Zorro and his life as a family man. After Alejandro once again breaks his promise to stop wearing the mask, Elena leaves him, and soon begins seeing Armand, a haughty French Count. But a mysterious explosion in the desert leads Zorro to believe that there's more to Armand than meets the eye, and our hero is intent on finding out what that is. Little does he know, there are others working to uncover certain truths as well. Written by amneris21
Tagline: This Fall, adventure begins with a Z.
Director: Martin Campbell
Writing By: Roberto Orci,Alex Kurtzman,Roberto Orci,Alex Kurtzman,Ted Elliott,Terry Rossio,Johnston McCulley,
Produced By: Gary Barber,Roger Birnbaum,Mark Cartier,John Gertz,Marc Haimes,Amy Lescoe,Laurie MacDonald,Walter F. Parkes,Lloyd Phillips,Olimpia Quintanilla,Steven Spielberg,
Music: James Horner
Cast:
Alberto Reyes as Brother Ignacio
Julio Oscar Mechoso as Frey Felipe
Gustavo Sánchez Parra as Guillermo Cortez
Adrian Alonso as Joaquin de la Vega
Nick Chinlund as Jacob McGivens
Giovanna Zacarías as Blanca Cortez
Carlos Cobos as Tabulador
Antonio Banderas as Don Alejandro de la Vega / Zorro
Michael Emerson as Harrigan
Shuler Hensley as Pike
Trailers:
The Legend of Zorro
The Legend of Zorro



Details
Name:The.Legend.of.Zorro.2005.BluRay.720p.x264.{Dual.Audio}.[Hindi Org-English].-.Hon3yHD
Description:
Format                      : Matroska
Format version              : Version 4 / Version 2
File size                   : 1.36 GiB
Duration                    : 2 h 10 min
Overall bit rate            : 1 492 kb/s

Video
ID                          : 1
Format                      : AVC
Format/Info                 : Advanced Video Codec
Format profile              : High@L4.1
Format settings             : CABAC / 8 Ref Frames
Format settings, CABAC      : Yes
Format settings, ReFrames   : 8 frames
Codec ID                    : V_MPEG4/ISO/AVC
Duration                    : 2 h 10 min
Bit rate                    : 1 200 kb/s
Width                       : 1 280 pixels
Height                      : 544 pixels
Display aspect ratio        : 2.35:1
Frame rate mode             : Constant
Frame rate                  : 23.976 (24000/1001) FPS

Audio #1
ID                          : 2
Format                      : AAC
Format/Info                 : Advanced Audio Codec
Format profile              : LC
Codec ID                    : A_AAC-2
Duration                    : 2 h 10 min
Bit rate                    : 128 kb/s
Channel(s)                  : 2 channels
Channel positions           : Front: L R
Sampling rate               : 48.0 kHz
Frame rate                  : 46.875 FPS (1024 SPF)
Compression mode            : Lossy
Delay relative to video     : 3 ms
Stream size                 : 119 MiB (9%)
Title                       : Stereo
Language                    : Hindi

Audio #2
ID                          : 3
Format                      : AAC
Format/Info                 : Advanced Audio Codec
Format profile              : LC
Codec ID                    : A_AAC-2
Duration                    : 2 h 10 min
Bit rate                    : 128 kb/s
Channel(s)                  : 2 channels
Channel positions           : Front: L R
Sampling rate               : 48.0 kHz
Frame rate                  : 46.875 FPS (1024 SPF)
Compression mode            : Lossy
Delay relative to video     : -21 ms
Stream size                 : 120 MiB (9%)
Title                       : Stereo
Language                    : English

       
Category:Movies > Hollywood Dub
Lang:Hindi
Total Size:1.36 GB








Post a Comment

0 Comments