Game of Thrones S02E08 BluRay 720p x264 Dual Audio [Hindi + English] Esub 454MB [Khiladi786]


Poster


iMDB
Title: "Game of Thrones" The Prince of Winterfell
Year: 2012
Runtime: 54 minutes
Votes: 16083
Rating: 8.9/10
Language: English
Director: Alan Taylor
Writing By: George R.R. Martin,David Benioff,D.B. Weiss,David Benioff,D.B. Weiss,
Produced By: David Benioff,Jonathan Brytus,Oliver Butler,Guymon Casady,Bernadette Caulfield,Frank Doelger,Vince Gerardis,George R.R. Martin,Lisa McAtackney,Erika Milutin,Christopher Newman,Greg Spence,Carolyn Strauss,Alan Taylor,Vanessa Taylor,D.B. Weiss,Snorri ├×├│risson,
Music: Ramin Djawadi
Cast:
Peter Dinklage as Tyrion Lannister
Lena Headey as Cersei Lannister
Nikolaj Coster-Waldau as Jaime Lannister
Michelle Fairley as Catelyn Stark
Emilia Clarke as Daenerys Targaryen
Iain Glen as Jorah Mormont
Kit Harington as Jon Snow
Charles Dance as Tywin Lannister
Liam Cunningham as Davos Seaworth
Jack Gleeson as Joffrey Baratheon



Details
Name:Game of Thrones S02E08 BluRay 720p x264 Dual Audio [Hindi + English] Esub 454MB [Khiladi786]
Description:
Game of Thrones S02E08 BluRay 720p x264 Dual Audio [Hindi + English] Esub 454MB [Khiladi786]

Show Has 18 + Scenes ... Mind It...





 


General
Format                                   : Matroska
Format version                           : Version 4 / Version 2
File size                                : 454 MiB
Duration                                 : 53 min 21 s
Overall bit rate                         : 1 190 kb/s

Video
ID                                       : 1
Format                                   : AVC
Format/Info                              : Advanced Video Codec
Format profile                           : High@L4.1
Format settings                          : CABAC / 8 Ref Frames
Format settings, CABAC                   : Yes
Format settings, ReFrames                : 8 frames
Codec ID                                 : V_MPEG4/ISO/AVC
Duration                                 : 53 min 21 s
Bit rate                                 : 923 kb/s
Width                                    : 1 280 pixels
Height                                   : 720 pixels
Display aspect ratio                     : 16:9
Frame rate mode                          : Constant
Frame rate                               : 23.976 (24000/1001) FPS
Color space                              : YUV
Chroma subsampling                       : 4:2:0
Bit depth                                : 8 bits
Scan type                                : Progressive
Bits/(Pixel*Frame)                       : 0.042
Stream size                              : 352 MiB (78%)
Writing library                          : x264 core 146 r2538 121396c
Language                                 : English
Default                                  : Yes
Forced                                   : No

Audio #1
ID                                       : 2
Format                                   : AAC
Format/Info                              : Advanced Audio Codec
Format profile                           : LC
Codec ID                                 : A_AAC-2
Duration                                 : 53 min 11 s
Bit rate                                 : 132 kb/s
Channel(s)                               : 2 channels
Channel positions                        : Front: L R
Sampling rate                            : 48.0 kHz
Frame rate                               : 46.875 FPS (1024 SPF)
Compression mode                         : Lossy
Stream size                              : 49.5 MiB (11%)
Language                                 : Hindi
Default                                  : Yes
Forced                                   : Yes

Audio #2
ID                                       : 3
Format                                   : AAC
Format/Info                              : Advanced Audio Codec
Format profile                           : LC
Codec ID                                 : A_AAC-2
Duration                                 : 53 min 21 s
Bit rate                                 : 132 kb/s
Channel(s)                               : 2 channels
Channel positions                        : Front: L R
Sampling rate                            : 48.0 kHz
Frame rate                               : 46.875 FPS (1024 SPF)
Compression mode                         : Lossy
Delay relative to video                  : 9 ms
Stream size                              : 51.1 MiB (11%)
Language                                 : English
Default                                  : No
Forced                                   : No

Text
ID                                       : 4
Format                                   : UTF-8
Codec ID                                 : S_TEXT/UTF8
Codec ID/Info                            : UTF-8 Plain Text
Duration                                 : 51 min 55 s
Bit rate                                 : 76 b/s
Count of elements                        : 872
Stream size                              : 28.9 KiB (0%)
Language                                 : English
Default                                  : Yes
Forced                                   : No

Menu
00:00:00.000                             : en:00:00:00.000
00:01:54.114                             : en:00:01:54.114
00:10:18.243                             : en:00:10:18.243
00:17:47.191                             : en:00:17:47.191
00:24:38.977                             : en:00:24:38.977
00:32:22.232                             : en:00:32:22.232
00:42:07.108                             : en:00:42:07.108
00:52:01.744                             : en:00:52:01.744


[HBO ORG HINDI DUB]

Special Thanks To Khiladi786 For Hindi Audio
Please Note : 18+ Scene Is synced with English Audio

ScreenShots

               

Thanks To KatmovieHD

Next - S02E09 in Hindi [Coming Soon ... ]

Category:Movies > Hollywood Dub
Lang:Hindi
Total Size:454.09 MB



|| Download This Tv Show Via Single Resumable Links Size: 454 MB ||

Direct-1 Google Drive | Direct-2 | Direct-3 |

Watch Online Click Here

Post a Comment

0 Comments