Game of Thrones S02E10 BluRay 720p x264 Dual Audio [Hindi + English] Esub 539MB [Khiladi786]

Poster


iMDB
Title: "Game of Thrones" Valar Morghulis
Year: 2012
Runtime: 64 minutes
Votes: 20649
Rating: 9.4/10
Language: English
Director: Alan Taylor
Writing By: George R.R. Martin,David Benioff,D.B. Weiss,David Benioff,D.B. Weiss,
Produced By: David Benioff,Jonathan Brytus,Oliver Butler,Guymon Casady,Bernadette Caulfield,Frank Doelger,Vince Gerardis,George R.R. Martin,Lisa McAtackney,Erika Milutin,Christopher Newman,Greg Spence,Carolyn Strauss,Alan Taylor,Vanessa Taylor,D.B. Weiss,Snorri ├×├│risson,
Music: Ramin Djawadi
Cast:
Peter Dinklage as Tyrion Lannister
Lena Headey as Cersei Lannister
Nikolaj Coster-Waldau as Jaime Lannister
Michelle Fairley as Catelyn Stark
Emilia Clarke as Daenerys Targaryen
Aidan Gillen as Petyr 'Littlefinger' Baelish
Iain Glen as Jorah Mormont
Kit Harington as Jon Snow
Charles Dance as Tywin Lannister
Isaac Hempstead Wright as Bran Stark

Details
Name:Game of Thrones S02E10 BluRay 720p x264 Dual Audio [Hindi + English] Esub 539MB [Khiladi786]
Description:
Game of Thrones S02E10 BluRay 720p x264 Dual Audio [Hindi + English] Esub 539MB [Khiladi786]

Show Has 18 + Scenes ... Mind It...





General
Format                                   : Matroska
Format version                           : Version 4 / Version 2
File size                                : 539 MiB
Duration                                 : 1 h 3 min
Overall bit rate                         : 1 187 kb/s

Video
ID                                       : 1
Format                                   : AVC
Format/Info                              : Advanced Video Codec
Format profile                           : High@L4.1
Format settings                          : CABAC / 8 Ref Frames
Format settings, CABAC                   : Yes
Format settings, ReFrames                : 8 frames
Codec ID                                 : V_MPEG4/ISO/AVC
Duration                                 : 1 h 3 min
Bit rate                                 : 921 kb/s
Width                                    : 1 280 pixels
Height                                   : 720 pixels
Display aspect ratio                     : 16:9
Frame rate mode                          : Constant
Frame rate                               : 23.976 (24000/1001) FPS
Color space                              : YUV
Chroma subsampling                       : 4:2:0
Bit depth                                : 8 bits
Scan type                                : Progressive
Bits/(Pixel*Frame)                       : 0.042
Stream size                              : 418 MiB (78%)
riting library                          : x264 core 146 r2538 121396c
anguage                                 : English
Default                                  : Yes
Forced                                   : No

Audio #1
ID                                       : 2
Format                                   : AAC
Format/Info                              : Advanced Audio Codec
Format profile                           : LC
Codec ID                                 : A_AAC-2
Duration                                 : 1 h 2 min
Bit rate                                 : 130 kb/s
Channel(s)                               : 2 channels
Channel positions                        : Front: L R
Sampling rate                            : 48.0 kHz
Frame rate                               : 46.875 FPS (1024 SPF)
Compression mode                         : Lossy
Stream size                              : 57.7 MiB (11%)
anguage                                 : Hindi
Default                                  : Yes
Forced                                   : Yes

Audio #2
ID                                       : 3
Format                                   : AAC
Format/Info                              : Advanced Audio Codec
Format profile                           : LC
Codec ID                                 : A_AAC-2
Duration                                 : 1 h 3 min
Bit rate                                 : 137 kb/s
Channel(s)                               : 2 channels
Channel positions                        : Front: L R
Sampling rate                            : 48.0 kHz
Frame rate                               : 46.875 FPS (1024 SPF)
Compression mode                         : Lossy
Delay relative to video                  : 9 ms
Stream size                              : 62.0 MiB (11%)
Language                                 : English
Default                                  : No
Forced                                   : No

Text
ID                                       : 4
Format                                   : UTF-8
Codec ID                                 : S_TEXT/UTF8
Codec ID/Info                            : UTF-8 Plain Text
Duration                                 : 59 min 54 s
Bit rate                                 : 48 b/s
Count of elements                        : 692
Stream size                              : 21.1 KiB (0%)
Language                                 : English
Default                                  : Yes
Forced                                   : No

Menu
00:00:00.000                             : en:00:00:00.000
00:01:55.115                             : en:00:01:55.115
00:11:49.751                             : en:00:11:49.751
00:22:05.449                             : en:00:22:05.449
00:33:31.801                             : en:00:33:31.801
00:43:35.238                             : en:00:43:35.238
00:51:48.230                             : en:00:51:48.230
01:02:07.140                             : en:01:02:07.140


           
Category:Movies > Hollywood Dub
Lang:Hindi
Total Size:538.82 MB



|| Download This Tv Show Via Single Resumable Links Size: 539 MB ||

Direct-1 Google Drive | Direct-2 | Direct-3 |

Watch Online Click Here

Post a Comment

0 Comments