Lost in Translation (2003) BluRay 720p Dual Audio [Hindi DD5.1 + Eng] x264 Esub ~Phenomenal


Poster


iMDB
Title: Lost in Translation
Year: 2003
Runtime: 102 minutes
Votes: 364398
Rating: 7.8/10
Language: English, Japanese, German, French
Tagline: Sometimes you have to go halfway around the world to come full circle
Director: Sofia Coppola
Writing By: Sofia Coppola,
Produced By: Francis Ford Coppola,Sofia Coppola,Mitch Glazer,Callum Greene,Kiyoshi Inoue,Ross Katz,Fred Roos,Stephen Nomura Schible,
Music: Kevin Shields
Cast:
Scarlett Johansson as Charlotte
Bill Murray as Bob Harris
Akiko Takeshita as Ms. Kawasaki
Kazuyoshi Minamimagoe as Press Agent
Kazuko Shibata as Press Agent
Take as Press Agent
Ryuichiro Baba as Concierge
Akira Yamaguchi as Bellboy
Catherine Lambert as Jazz Singer
Fran├žois du Bois as Sausalito Piano
Trailers:
Lost in Translation
Lost In Translation
Lost In Translation


Details
Name:Lost in Translation (2003) BluRay 720p Dual Audio [Hindi DD5.1 + Eng] x264 Esub ~Phenomenal
Description:
Lost in Translation (2003) BluRay 720p Dual Audio [Hindi DD5.1 + Eng] x264 Esub ~Phenomenal



General
Format                                   : Matroska
Format version                           : Version 4 / Version 2
File size                                : 988 MiB
Duration                                 : 1 h 41 min
Overall bit rate                         : 1 357 kb/s

Video
ID                                       : 1
Format                                   : AVC
Format/Info                              : Advanced Video Codec
Format profile                           : High@L4
Format settings                          : CABAC / 8 Ref Frames
Format settings, CABAC                   : Yes
Format settings, ReFrames                : 8 frames
Codec ID                                 : V_MPEG4/ISO/AVC
Duration                                 : 1 h 41 min
Bit rate                                 : 1 082 kb/s
Width                                    : 1 280 pixels
Height                                   : 720 pixels
Display aspect ratio                     : 16:9
Frame rate mode                          : Constant
Frame rate                               : 23.976 (24000/1001) FPS
Color space                              : YUV
Chroma subsampling                       : 4:2:0
Bit depth                                : 8 bits
Scan type                                : Progressive
Bits/(Pixel*Frame)                       : 0.049
Stream size                              : 787 MiB (80%)
Writing library                          : x264 core 148 r2694 3b70645
Language                                 : English
Default                                  : Yes
Forced                                   : No

Audio #1
ID                                       : 2
Format                                   : AAC
Format/Info                              : Advanced Audio Codec
Format profile                           : HE-AAC / LC
Format settings                          : Explicit
Codec ID                                 : A_AAC-2
Duration                                 : 1 h 41 min
Bit rate                                 : 188 kb/s
Channel(s)                               : 6 channels
Channel positions                        : Front: L C R, Side: L R, LFE
Sampling rate                            : 48.0 kHz / 24.0 kHz
Frame rate                               : 23.438 FPS (1024 SPF)
Compression mode                         : Lossy
Delay relative to video                  : 36 ms
Stream size                              : 137 MiB (14%)
Language                                 : Hindi
Default                                  : Yes
Forced                                   : Yes

Audio #2
ID                                       : 3
Format                                   : AAC
Format/Info                              : Advanced Audio Codec
Format profile                           : LC
Codec ID                                 : A_AAC-2
Duration                                 : 1 h 41 min
Bit rate                                 : 84.9 kb/s
Channel(s)                               : 2 channels
Channel positions                        : Front: L R
Sampling rate                            : 48.0 kHz
Frame rate                               : 46.875 FPS (1024 SPF)
Compression mode                         : Lossy
Delay relative to video                  : 9 ms
Stream size                              : 61.8 MiB (6%)
Language                                 : English
Default                                  : No
Forced                                   : No

Text
ID                                       : 4
Format                                   : UTF-8
Codec ID                                 : S_TEXT/UTF8
Codec ID/Info                            : UTF-8 Plain Text
Duration                                 : 1 h 38 min
Bit rate                                 : 45 b/s
Count of elements                        : 997
Stream size                              : 32.6 KiB (0%)
Language                                 : English
Default                                  : No
Forced                                   : No

Menu #1
00:00:00.000                             : en:00:00:00.000
00:07:58.645                             : en:00:07:58.645
00:16:19.270                             : en:00:16:19.270
00:23:33.704                             : en:00:23:33.704
00:34:46.543                             : en:00:34:46.543
00:41:21.771                             : en:00:41:21.771
00:52:28.270                             : en:00:52:28.270
01:02:47.847                             : en:01:02:47.847
01:07:22.914                             : en:01:07:22.914
01:17:01.075                             : en:01:17:01.075
01:23:43.018                             : en:01:23:43.018
01:35:58.378                             : en:01:35:58.378

Menu #2
00:00:00.097                             : en:00:00:00.097

iCqCA.th.jpg iCGaR.th.jpg iC0dm.th.jpg iCYoe.th.jpg iCewU.th.jpg iCi1n.th.jpg
Category:Movies > Hollywood Dub
Lang:Hindi
Total Size:987.55 MB



|| Download This Movie Via Single Resumable Links Size: 988 MB ||

Direct-1 Google Drive | Direct-2 | Direct-3 |

Watch Online Click Here

Post a Comment

0 Comments