Ouija Origin of Evil (2016) BluRay 1080p x264 Dual Audio [Hindi DDP5.1 - English DD5.1] - Msubs ~ Ranvijay


Poster


iMDB
Imdb Picture Title: Ouija: Origin of Evil
Year: 2016
Runtime: 99 minutes
Votes: 33549
Rating: 6.1/10
Language: English, Ukrainian
Country: USA, China, Japan
All Genres: Horror, Thriller
Plot Outline: In 1967 Los Angeles, a widowed mother and her daughters add a new stunt to bolster their seance scam business, inviting an evil presence into their home.
Tagline: No telling what you'll see.
Director: Mike Flanagan
Writing By: Mike Flanagan,Jeff Howard,Juliet Snowden,Stiles White,
Produced By: Michael Bay,Jason Blum,Jeanette Brill,Stephen Davis,Phillip Dawe,Andrew Form,Bradley Fuller,Brian Goldner,Victor Ho,Trevor Macy,Couper Samuelson,
Music: The Newton Brothers
Plot:
In 1967 Los Angeles, a widowed mother and her daughters add a new stunt to bolster their seance scam business, inviting an evil presence into their home.
- Written by Universal Pictures
Cast:
Annalise Basso as Lina Zander
Elizabeth Reaser as Alice Zander
Lulu Wilson as Doris Zander
Henry Thomas as Father Tom
Parker Mack as Mikey
Halle Charlton as Ellie
Alexis G. Zall as Betty
Doug Jones as Ghoul Marcus
Kate Siegel as Jenny Browning
Sam Anderson as Mr. Browning
Trailers:
Trailer #2
Official Trailer



Details
Name:Ouija Origin of Evil (2016) 1080p BluRay x264 Dual Audio [Hindi DDP5.1 - English DD5.1] - Msubs...
Description:
Ouija Origin of Evil (2016) 1080p BluRay x264 Dual Audio [Hindi DDP5.1 - English DD5.1] - Msubs ~ Ranvijay





Thanks To Hammer For Hindi Audio

Format                                   : Matroska
Format version                           : Version 4 / Version 2
File size                                : 4.22 GiB
Duration                                 : 1 h 38 min
Overall bit rate                         : 6 111 kb/s
Movie name                               : Ouija Origin of Evil (2016) 1080p BluRay x264 Dual Audio [Hindi DDP5.1 - English DD5.1] - Msubs ~ Ranvijay

Video
ID                                       : 1
Format                                   : AVC
Format/Info                              : Advanced Video Codec
Duration                                 : 1 h 38 min
Bit rate                                 : 5 000 kb/s
Width                                    : 1 912 pixels
Height                                   : 1 032 pixels
Display aspect ratio                     : 1.85:1
Frame rate mode                          : Constant
Frame rate                               : 23.976 (24000/1001) FPS
Color space                              : YUV
Chroma subsampling                       : 4:2:0
Bit depth                                : 8 bits
Scan type                                : Progressive
Bits/(Pixel*Frame)                       : 0.106
Stream size                              : 3.45 GiB (82%)
Title                                    : ~Ranvijay~

Audio #1
ID                                       : 2
Format                                   : E-AC-3
Format/Info                              : Enhanced Audio Coding 3
Codec ID                                 : A_EAC3
Duration                                 : 1 h 38 min
Bit rate mode                            : Constant
Bit rate                                 : 640 kb/s
Channel(s)                               : 6 channels
Channel positions                        : Front: L C R, Side: L R, LFE
Sampling rate                            : 48.0 kHz
Frame rate                               : 187.500 FPS (256 SPF)
Compression mode                         : Lossy
Stream size                              : 453 MiB (10%)
Title                                    : ~Ranvijay~
Language                                 : Hindi
Service kind                             : Complete Main
Default                                  : Yes
Forced                                   : Yes

Audio #2
ID                                       : 3
Format                                   : AC-3
Format/Info                              : Audio Coding 3
Codec ID                                 : A_AC3
Duration                                 : 1 h 38 min
Bit rate mode                            : Constant
Bit rate                                 : 448 kb/s
Channel(s)                               : 6 channels
Channel positions                        : Front: L C R, Side: L R, LFE
Sampling rate                            : 48.0 kHz
Frame rate                               : 31.250 FPS (1536 SPF)
Bit depth                                : 16 bits
Compression mode                         : Lossy
Stream size                              : 317 MiB (7%)
Title                                    : ~Ranvijay~
Language                                 : English
Service kind                             : Complete Main
Default                                  : No
Forced                                   : No

Text #1
ID                                       : 4
Format                                   : PGS
Muxing mode                              : zlib
Codec ID                                 : S_HDMV/PGS
Codec ID/Info                            : Picture based subtitle format used on BDs/HD-DVDs
Duration                                 : 1 h 38 min
Bit rate                                 : 9 049 b/s
Count of elements                        : 2324
Stream size                              : 6.35 MiB (0%)
Title                                    : ~Ranvijay~
Language                                 : English
Default                                  : Yes
Forced                                   : Yes

Text #2
ID                                       : 5
Format                                   : PGS
Muxing mode                              : zlib
Codec ID                                 : S_HDMV/PGS
Codec ID/Info                            : Picture based subtitle format used on BDs/HD-DVDs
Duration                                 : 1 h 38 min
Bit rate                                 : 7 327 b/s
Count of elements                        : 2118
Stream size                              : 5.17 MiB (0%)
Title                                    : ~Ranvijay~
Language                                 : Hindi
Default                                  : No
Forced                                   : No

Text #3
ID                                       : 6
Format                                   : PGS
Muxing mode                              : zlib
Codec ID                                 : S_HDMV/PGS
Codec ID/Info                            : Picture based subtitle format used on BDs/HD-DVDs
Duration                                 : 1 h 38 min
Bit rate                                 : 7 048 b/s
Count of elements                        : 2322
Stream size                              : 4.97 MiB (0%)
Title                                    : ~Ranvijay~
Language                                 : Arabic
Default                                  : No
Forced                                   : No

Menu
00:00:00.000                             : en:00:00:00.000
00:05:30.747                             : en:00:05:30.747
00:09:12.469                             : en:00:09:12.469
00:14:19.525                             : en:00:14:19.525
00:21:37.880                             : en:00:21:37.880
00:25:24.314                             : en:00:25:24.314
00:30:09.850                             : en:00:30:09.850
00:35:53.318                             : en:00:35:53.318
00:39:04.384                             : en:00:39:04.384
00:43:53.464                             : en:00:43:53.464
00:48:49.677                             : en:00:48:49.677
00:55:11.683                             : en:00:55:11.683
00:58:47.607                             : en:00:58:47.607
01:05:27.715                             : en:01:05:27.715
01:10:46.284                             : en:01:10:46.284
01:14:26.420                             : en:01:14:26.420
01:18:25.075                             : en:01:18:25.075
01:21:48.403                             : en:01:21:48.403
01:27:42.841                             : en:01:27:42.841
01:31:03.291                             : en:01:31:03.291


                       
Category:Movies > Hollywood Dub
Lang:Hindi
Total Size:4.25 GB





|| Download This Movie Via Single Resumable Links Size: 4.22 GB ||

Direct-1 Google Drive | Direct-2 | Direct-3 |

Watch Online Click Here

Post a Comment

0 Comments