Panic Room (2002) 1080p WEB-HD x264 Dual Audio [Hindi DD2.0 - English DD2.0] ~ Ranvijay


Poster


iMDB
Title: Panic Room
Year: 2002
Runtime: 112 minutes
Votes: 231080
Rating: 6.8/10
Language: English
Tagline: What do you do when your hiding place is their destination?
Director: David Fincher
Writing By: David Koepp,
Produced By: Ceán Chaffin,John S. Dorsey,Judy Hofflund,David Koepp,Gavin Polone,
Music: Howard Shore
Cast:
Jodie Foster as Meg Altman
Kristen Stewart as Sarah Altman
Forest Whitaker as Burnham
Dwight Yoakam as Raoul
Jared Leto as Junior
Patrick Bauchau as Stephen Altman
Ann Magnuson as Lydia Lynch
Ian Buchanan as Evan Kurlander
Andrew Kevin Walker as Sleepy Neighbor
Paul Schulze as Officer Keeney
Trailers:
Panic Room



Details
Name:Panic Room (2002) 1080p WEB-HD x264 Dual Audio [Hindi DD2.0 - English DD2.0] ~ Ranvijay
Description:

Panic Room (2002) 1080p WEB-HD x264 Dual Audio [Hindi DD2.0 - English DD2.0] ~ Ranvijay
Format                                   : Matroska
Format version                           : Version 4 / Version 2
File size                                : 4.26 GiB
Duration                                 : 1 h 51 min
Overall bit rate                         : 5 446 kb/s
Movie name                               : Panic Room (2002) 1080p WEB-HD x264 Dual Audio [Hindi DD2.0 - English DD2.0] ~ Ranvijay

Video
ID                                       : 1
Format                                   : AVC
Format/Info                              : Advanced Video Codec
Duration                                 : 1 h 51 min
Bit rate                                 : 4 999 kb/s
Width                                    : 1 920 pixels
Height                                   : 800 pixels
Display aspect ratio                     : 2.40:1
Frame rate mode                          : Constant
Frame rate                               : 23.976 (24000/1001) FPS
Color space                              : YUV
Chroma subsampling                       : 4:2:0
Bit depth                                : 8 bits
Scan type                                : Progressive
Bits/(Pixel*Frame)                       : 0.136
Stream size                              : 3.91 GiB (92%)
Title                                    : ~Ranvijay~

Audio #1
ID                                       : 2
Format                                   : AC-3
Format/Info                              : Audio Coding 3
Codec ID                                 : A_AC3
Duration                                 : 1 h 51 min
Bit rate mode                            : Constant
Bit rate                                 : 224 kb/s
Channel(s)                               : 2 channels
Channel positions                        : Front: L R
Sampling rate                            : 48.0 kHz
Frame rate                               : 31.250 FPS (1536 SPF)
Bit depth                                : 16 bits
Compression mode                         : Lossy
Stream size                              : 179 MiB (4%)
Title                                    : ~Ranvijay~
Language                                 : Hindi
Service kind                             : Complete Main
Default                                  : Yes
Forced                                   : Yes

Audio #2
ID                                       : 3
Format                                   : AC-3
Format/Info                              : Audio Coding 3
Codec ID                                 : A_AC3
Duration                                 : 1 h 51 min
Bit rate mode                            : Constant
Bit rate                                 : 224 kb/s
Channel(s)                               : 2 channels
Channel positions                        : Front: L R
Sampling rate                            : 48.0 kHz
Frame rate                               : 31.250 FPS (1536 SPF)
Bit depth                                : 16 bits
Compression mode                         : Lossy
Stream size                              : 179 MiB (4%)
Title                                    : ~Ranvijay~
Language                                 : English
Service kind                             : Complete Main
Default                                  : No
Forced                                   : No








Category:Movies > Hollywood Dub
Lang:Hindi
Total Size:4.32 GB





|| Download This Movie Via Single Resumable Links Size: 5.21 GB ||

Direct-1 Google Drive | Direct-2 | Direct-3 |

Watch Online Click Here

Post a Comment

0 Comments