Rogue One A Star Wars Story (2016) BluRay 1080p x264 Dual Audio [Hindi DD5.1 - English DD5.1] - ESUB ~ Ranvijay


Poster


iMDB
Imdb Picture Title: Rogue One
Year: 2016
Runtime: 133 minutes
Votes: 298712
Rating: 8.0/10
Language: English
Country: USA, UK
All Genres: Action, Adventure, Sci-Fi
Plot Outline: The Rebel Alliance makes a risky move to steal the plans for the Death Star, setting up the epic saga to follow.
Tagline: A rebellion built on hope.
Director: Gareth Edwards
Writing By: Chris Weitz,Tony Gilroy,John Knoll,Gary Whitta,George Lucas,
Produced By: Simon Emanuel,Kiri Hart,Toby Hefferman,Finni Johannsson,Kathleen Kennedy,John Knoll,Jason D. McGatlin,Allison Shearmur,John Swartz,Susan Towner,
Music: Michael Giacchino
Plot:
All looks lost for the Rebellion against the Empire as they learn of the existence of a new super weapon, the Death Star. Once a possible weakness in its construction is uncovered, the Rebel Alliance must set out on a desperate mission to steal the plans for the Death Star. The future of the entire galaxy now rests upon its success.
- Written by Ryan Cullmann
As the rebellion captures and spreads its influence among people, the Galactic empire builds a super weapon capable of destroying an entire planet. So the rebellion sends a group of rebels to steal plans that hide secrets how to destroy this weapon of mass destruction.
The Rebel Alliance makes a risky move to steal the plans for the Death Star, setting up the epic saga to follow.
- Written by zachf-gould
Cast:
Felicity Jones as Jyn Erso
Diego Luna as Cassian Andor
Alan Tudyk as K-2SO
Donnie Yen as Chirrut Îmwe
Wen Jiang as Baze Malbus
Ben Mendelsohn as Orson Krennic
Guy Henry as Governor Tarkin
Forest Whitaker as Saw Gerrera
Riz Ahmed as Bodhi Rook
Mads Mikkelsen as Galen Erso
Trailers:
In-Home Trailer
"Worth It" TV Spot
"Breath" TV Spot
Special Extended Look: "Trust"
Trailer #3
Extended TV Spot
'Together' TV Spot
Trailer #2
Official Trailer
Official TV Spot #1
Official Teaser Trailer
Teaser Preview



Details
Name:Rogue One A Star Wars Story (2016) 1080p BluRay x264 Dual Audio [Hindi DDP5.1 - English DD5.1] ...
Description:
Rogue One A Star Wars Story (2016) 1080p BluRay x264 Dual Audio [Hindi DDP5.1 - English DD5.1] - ESUB ~ Ranvijay






Thanks To Hammer For Hindi Audio

 
Format                                  : Matroska
Format version                          : Version 4 / Version 2
File size                                : 5.21 GiB
Duration                                : 2 h 14 min
Overall bit rate                        : 5 539 kb/s
Movie name                              : Rogue One A Star Wars Story (2016) 1080p BluRay x264 Dual Audio [Hindi DDP5.1 - English DD5.1] - ESUB ~ Ranvijay

Video
ID                                      : 1
Format                                  : AVC
Duration                                : 2 h 13 min
Bit rate                                : 4 500 kb/s
Width                                    : 1 920 pixels
Height                                  : 804 pixels
Display aspect ratio                    : 2.40:1
Frame rate mode                          : Constant
Frame rate                              : 23.976 (24000/1001) FPS
Color space                              : YUV
Chroma subsampling                      : 4:2:0
Bit depth                                : 8 bits
Scan type                                : Progressive
Bits/(Pixel*Frame)                      : 0.122
Stream size                              : 4.21 GiB (81%)
Title                                    : ~Ranvijay~

Audio #1
ID                                      : 2
Format                                  : E-AC-3
Format/Info                              : Enhanced Audio Coding 3
Codec ID                                : A_EAC3
Duration                                : 2 h 14 min
Bit rate mode                            : Constant
Bit rate                                : 640 kb/s
Channel(s)                              : 6 channels
Channel positions                        : Front: L C R, Side: L R, LFE
Sampling rate                            : 48.0 kHz
Frame rate                              : 187.500 FPS (256 SPF)
Compression mode                        : Lossy
Delay relative to video                  : 833 ms
Stream size                              : 616 MiB (12%)
Title                                    : ~Ranvijay~
Language                                : Hindi
Service kind                            : Complete Main
Default                                  : Yes
Forced                                  : Yes

Audio #2
ID                                      : 3
Format                                  : AC-3
Format/Info                              : Audio Coding 3
Codec ID                                : A_AC3
Duration                                : 2 h 4 min
Bit rate mode                            : Constant
Bit rate                                : 448 kb/s
Channel(s)                              : 6 channels
Channel positions                        : Front: L C R, Side: L R, LFE
Sampling rate                            : 48.0 kHz
Frame rate                              : 31.250 FPS (1536 SPF)
Bit depth                                : 16 bits
Compression mode                        : Lossy
Stream size                              : 398 MiB (7%)
Title                                    : ~Ranvijay~
Language                                : English
Service kind                            : Complete Main
Default                                  : No
Forced                                  : No

Text
ID                                      : 4
Format                                  : PGS
Muxing mode                              : zlib
Codec ID                                : S_HDMV/PGS
Codec ID/Info                            : Picture based subtitle format used on BDs/HD-DVDs
Duration                                : 2 h 5 min
Bit rate                                : 29.6 kb/s
Count of elements                        : 3018
Stream size                              : 26.6 MiB (0%)
Title                                    : ~Ranvijay~
Language                                : English
Default                                  : Yes
Forced                                  : Yes

Menu
00:00:00.000                            : en:00:00:00.000
00:02:34.654                            : en:00:02:34.654
00:07:46.466                            : en:00:07:46.466
00:08:42.814                            : en:00:08:42.814
00:11:04.622                            : en:00:11:04.622
00:12:21.199                            : en:00:12:21.199
00:13:41.154                            : en:00:13:41.154
00:17:19.914                            : en:00:17:19.914
00:20:09.542                            : en:00:20:09.542
00:21:54.772                            : en:00:21:54.772
00:23:47.092                            : en:00:23:47.092
00:24:31.386                            : en:00:24:31.386
00:26:53.445                            : en:00:26:53.445
00:27:46.623                            : en:00:27:46.623
00:30:37.294                            : en:00:30:37.294
00:33:53.406                            : en:00:33:53.406
00:37:11.271                            : en:00:37:11.271
00:42:30.089                            : en:00:42:30.089
00:47:16.125                            : en:00:47:16.125
00:51:04.144                            : en:00:51:04.144
00:52:23.724                            : en:00:52:23.724
00:55:53.266                            : en:00:55:53.266
00:59:48.251                            : en:00:59:48.251
01:02:07.807                            : en:01:02:07.807
01:05:25.505                            : en:01:05:25.505
01:10:24.095                            : en:01:10:24.095
01:12:49.532                            : en:01:12:49.532
01:16:28.459                            : en:01:16:28.459
01:19:04.323                            : en:01:19:04.323
01:21:55.160                            : en:01:21:55.160
01:23:25.667                            : en:01:23:25.667
01:25:58.987                            : en:01:25:58.987
01:27:34.958                            : en:01:27:34.958
01:29:57.308                            : en:01:29:57.308
01:31:53.841                            : en:01:31:53.841
01:34:18.736                            : en:01:34:18.736
01:36:07.512                            : en:01:36:07.512
01:37:48.237                            : en:01:37:48.237
01:40:27.605                            : en:01:40:27.605
01:42:44.074                            : en:01:42:44.074
01:45:26.779                            : en:01:45:26.779
01:47:55.010                            : en:01:47:55.010
01:50:31.416                            : en:01:50:31.416
01:53:28.885                            : en:01:53:28.885
01:55:46.272                            : en:01:55:46.272
01:59:23.448                            : en:01:59:23.448
02:01:11.347                            : en:02:01:11.347
02:03:15.596                            : en:02:03:15.596
02:05:42.118                            : en:02:05:42.118

                       
Category:Movies > Hollywood Dub
Lang:Hindi
Total Size:5.23 GB




|| Download This Movie Via Single Resumable Links Size: 5.21 GB ||

Direct-1 Google Drive | Direct-2 | Direct-3 |

Watch Online Click Here

Post a Comment

0 Comments