The Canterville Ghost (1996) 1080p WEB-Rip x264 Dual Audio [Hindi - English] DD2.0 - ESUB ~ Ranvijay


Poster


iMDB
Title: The Canterville Ghost
Year: 1996
Runtime: 92 minutes
Language: English
All Genres: Family, Drama, Fantasy
Director: Syd Macartney
Writing By: Oscar Wilde,Robert Benedetti,
Produced By: Robert Benedetti,Malcolm J. Christopher,Brent Shields,Patrick Stewart,Richard Welsh,
Music: Ernest Troost
Cast:
Patrick Stewart as Sir Simon de Canterville
Neve Campbell as Virginia 'Ginny' Otis
Joan Sims as Mrs. Umney
Donald Sinden as Mr. Umney
Cherie Lunghi as Lucille Otis
Edward Wiley as Hiram Otis
Leslie Phillips as George, Lord Canterville
Daniel Betts as Francis, Duke of Cheshire
CiarĂ¡n Fitzgerald as Adam Otis
Raymond Pickard as Washington Otis

Details
Name:The Canterville Ghost (1996) 1080p WEB-Rip x264 Dual Audio [Hindi - English] DD2.0 - ESUB ~ Ran...
Description:
The Canterville Ghost (1996) 1080p WEB-Rip x264 Dual Audio [Hindi - English] DD2.0 - ESUB ~ Ranvijay

Source                                : MartySeamus Mcfly
 
Format                                   : Matroska
Format version                           : Version 4 / Version 2
File size                                : 3.01 GiB
Duration                                 : 1 h 31 min
Overall bit rate                         : 4 709 kb/s
Movie name                               : The Canterville Ghost (1996) 1080p WEB-Rip x264 Dual Audio [Hindi - English] DD2.0 - ESUB ~ Ranvijay

Video
ID                                       : 1
Format                                   : AVC
Format/Info                              : Advanced Video Codec
Duration                                 : 1 h 31 min
Bit rate                                 : 4 450 kb/s
Width                                    : 1 920 pixels
Height                                   : 1 080 pixels
Display aspect ratio                     : 16:9
Frame rate mode                          : Constant
Frame rate                               : 23.976 (24000/1001) FPS
Color space                              : YUV
Chroma subsampling                       : 4:2:0
Bit depth                                : 8 bits
Scan type                                : Progressive
Bits/(Pixel*Frame)                       : 0.090
Stream size                              : 2.85 GiB (95%)
Title                                    : ~Ranvijay~

Audio #1
ID                                       : 2
Format                                   : AC-3
Format/Info                              : Audio Coding 3
Codec ID                                 : A_AC3
Duration                                 : 1 h 31 min
Bit rate mode                            : Constant
Bit rate                                 : 128 kb/s
Channel(s)                               : 2 channels
Channel positions                        : Front: L R
Sampling rate                            : 48.0 kHz
Frame rate                               : 31.250 FPS (1536 SPF)
Bit depth                                : 16 bits
Compression mode                         : Lossy
Stream size                              : 83.9 MiB (3%)
Title                                    : ~Ranvijay~
Language                                 : Hindi
Service kind                             : Complete Main
Default                                  : Yes
Forced                                   : Yes

Audio #2
ID                                       : 3
Format                                   : E-AC-3
Format/Info                              : Enhanced Audio Coding 3
Codec ID                                 : A_EAC3
Duration                                 : 1 h 31 min
Bit rate mode                            : Constant
Bit rate                                 : 128 kb/s
Channel(s)                               : 2 channels
Channel positions                        : Front: L R
Sampling rate                            : 48.0 kHz
Frame rate                               : 187.500 FPS (256 SPF)
Compression mode                         : Lossy
Stream size                              : 83.9 MiB (3%)
Title                                    : ~Ranvijay~
Language                                 : English
Service kind                             : Complete Main
Default                                  : No
Forced                                   : No

Text
ID                                       : 4
Format                                   : UTF-8
Codec ID                                 : S_TEXT/UTF8
Codec ID/Info                            : UTF-8 Plain Text
Duration                                 : 1 h 30 min
Bit rate                                 : 64 b/s
Count of elements                        : 1379
Stream size                              : 42.8 KiB (0%)
Title                                    : ~Ranvijay~
Language                                 : English
Default                                  : Yes
Forced                                   : Yes

                 
Category:Movies > Hollywood Dub
Lang:Hindi
Total Size:3.04 GB





|| Download This Movie Via Single Resumable Links Size: 3.01 GB ||

Direct-1 Google Drive | Direct-2 | Direct-3 |

Watch Online Click Here

Post a Comment

0 Comments