Tigers (2014) Hindi 1080p WEB-DL x264 AAC ~TeamCrazy Exclusive


Poster


iMDB
Title: Tigers
Year: 2014
Runtime: 94 minutes
Votes: 334
Rating: 7.0/10
Language: Hindi, English, Urdu, German
Director: Danis Tanovic
Writing By: Darab Farooqui,Andy Paterson,Andy Paterson,Vibhu Puri,Danis Tanovic,
Produced By: Vishal Bajaj,Marc Baschet,Kshitij Chaudhary,Prashita Chaudhary,Annalise Davis,Praveen Hashmi,Achin Jain,Anurag Kashyap,Rashmi Kohli,C├ędomir Kolar,Susanne Mann,Guneet Monga,Andy Paterson,Pratik Rawal,Meraj Shaikh,Karen Tenkhoff,Cat Villiers,Michael Weber,Paul Zischler,
Music: Pritam Chakraborty
Cast:
Emraan Hashmi as Ayan
Geetanjali Thapa as Zainab
Danny Huston as Alex
Khalid Abdalla as Nadeem
Adil Hussain as Bilal
Satyadeep Misra as Dr. Faiz
Maryam d'Abo as Maggie
Heino Ferch as Michael
Sam Reid as Frank
Vinod Nagpal as Mustafa
Trailers:
Tigers Movie - Official Trailer



Details
Name:Tigers (2014) Hindi 1080p WEB-DL x264 AAC ~TeamCrazy Exclusive
Description:
Tigers (2014) Hindi 1080p WEB-DL x264 AAC ~TeamCrazy Exclusive



Source:- TeamTelly

General
Format                                   : MPEG-4
Format profile                           : Base Media
Codec ID                                 : isom (isom/iso2/avc1/mp41)
File size                                : 1.44 GiB
Duration                                 : 1 h 29 min
Overall bit rate                         : 2 307 kb/s
Writing application                      : Lavf58.12.100

Video
ID                                       : 1
Format                                   : AVC
Format/Info                              : Advanced Video Codec
Format profile                           : High@L4
Format settings                          : CABAC / 4 Ref Frames
Format settings, CABAC                   : Yes
Format settings, ReFrames                : 4 frames
Codec ID                                 : avc1
Codec ID/Info                            : Advanced Video Coding
Duration                                 : 1 h 29 min
Bit rate                                 : 2 181 kb/s
Width                                    : 1 920 pixels
Height                                   : 1 080 pixels
Display aspect ratio                     : 16:9
Frame rate mode                          : Constant
Frame rate                               : 25.000 FPS
Color space                              : YUV
Chroma subsampling                       : 4:2:0
Bit depth                                : 8 bits
Scan type                                : Progressive
Bits/(Pixel*Frame)                       : 0.042
Stream size                              : 1.35 GiB (94%)
Writing library                          : x264 core 148 r2643 5c65704
Codec configuration box                  : avcC

Audio
ID                                       : 2
Format                                   : AAC LC
Format/Info                              : Advanced Audio Codec Low Complexity
Codec ID                                 : mp4a-40-2
Duration                                 : 1 h 29 min
Duration_LastFrame                       : -3 ms
Bit rate mode                            : Constant
Bit rate                                 : 128 kb/s
Channel(s)                               : 1 channel
Channel layout                           : C
Sampling rate                            : 44.1 kHz
Frame rate                               : 43.066 FPS (1024 SPF)
Compression mode                         : Lossy
Stream size                              : 81.7 MiB (6%)
Title                                    : Track1
Default                                  : Yes
Alternate group                          : 1

 
 
 
 
 
Category:Movies > Pakistani
Lang:Hindi
Total Size:1.44 GB



|| Download This Movie Via Single Resumable Links Size: 1.44 GB ||

Direct-1 Google Drive | Direct-2 | Direct-3 |

Watch Online Click Here

Post a Comment

0 Comments