Babumoshai Bandookbaaz (2017) Hindi 1080p UntoucheD WEB-DL x264 AAC ~TeamTelly Exclusive


Poster


iMDB
Imdb Picture Title: Babumoshai Bandookbaaz
Year: 2017
Runtime: 122 minutes
Votes: 30
Rating: 8.5/10
Language: Hindi, Bengali
Country: India
All Genres: Action, Comedy, Crime, Thriller
Plot Outline: The movie, filled with humor and romance, is a quirky ride into the life and times of a small time contract killer, Babu, played by Nawazuddin Siddiqui. The film spins around his love, his friends, his rivalries and his revenge.
Director: Kushan Nandy
Writing By: Ghalib Asadbhopali,
Produced By: Sanjay Inamdar,Ashmith Kunder,Kushan Nandy,Kiran Shroff,
Plot:
The movie, filled with humor and romance, is a quirky ride into the life and times of a small time contract killer, Babu, played by Nawazuddin Siddiqui. The film spins around his love, his friends, his rivalries and his revenge.
- Written by vhavnal
Cast:
Nawazuddin Siddiqui as Babumoshai Bandookbaaz
Bidita Bag as
Shradha Das as
Divya Dutta as
Murli Sharma as
Sanjay Inamdar as Premchand
Akash as
Sachin Chaubey as
Anil George as
Jatin Goswami as




Details
Name:Babumoshai Bandookbaaz (2017) Hindi 1080p UntoucheD WEB-DL x264 AAC ~TeamTelly Exclusive
Description:
Babumoshai Bandookbaaz (2017) Hindi 1080p UntoucheD WEB-DL x264 AAC ~TeamTelly Exclusive




General
Format                                   : MPEG-4
Format profile                           : Base Media
Codec ID                                 : isom (isom/iso2/avc1/mp41)
File size                                : 1.88 GiB
Duration                                 : 1 h 58 min
Overall bit rate                         : 2 278 kb/s
Writing application                      : Lavf58.24.100

Video
ID                                       : 1
Format                                   : AVC
Format/Info                              : Advanced Video Codec
Format profile                           : High@L4
Format settings                          : CABAC / 4 Ref Frames
Format settings, CABAC                   : Yes
Format settings, ReFrames                : 4 frames
Codec ID                                 : avc1
Codec ID/Info                            : Advanced Video Coding
Duration                                 : 1 h 58 min
Bit rate                                 : 2 200 kb/s
Width                                    : 1 920 pixels
Height                                   : 1 080 pixels
Display aspect ratio                     : 16:9
Frame rate mode                          : Constant
Frame rate                               : 25.000 FPS
Color space                              : YUV
Chroma subsampling                       : 4:2:0
Bit depth                                : 8 bits
Scan type                                : Progressive
Bits/(Pixel*Frame)                       : 0.042
Stream size                              : 1.79 GiB (96%)
Writing library                          : x264 core 152 r2854 e9a5903

Audio
ID                                       : 2
Format                                   : AAC LC
Format/Info                              : Advanced Audio Codec Low Complexity
Codec ID                                 : mp4a-40-2
Duration                                 : 1 h 58 min
Bit rate mode                            : Constant
Bit rate                                 : 96.0 kb/s
Channel(s)                               : 2 channels
Channel layout                           : L R
Sampling rate                            : 48.0 kHz
Frame rate                               : 46.875 FPS (1024 SPF)
Compression mode                         : Lossy
Stream size                              : 81.5 MiB (4%)
Default                                  : Yes
Alternate group                          : 1

 
 
 
 
 
 
 
 
 
Category:Movies > Bollywood
Lang:Hindi
Total Size:1.88 GB





|| Download This Movie Via Single Resumable Links Size: 1.88 GB ||

Direct-1 Google Drive | Direct-2 | Direct-3 |

Watch Online Click Here

Post a Comment

0 Comments