Bhaiaji Superhit (2018) Hindi 1080p UntoucheD WEB DL - AVC - AAC - DTOne Exclusive


Poster
https://2.bp.blogspot.com/-rOmD7p3aCoM/W_o_q7NsdmI/AAAAAAAAARA/CmpqAdP5uZ4G6notYFPftLmQ7DlNggvhwCLcBGAs/s1600/Screenshot_2018-11-25-11-51-31-183_com.android.chrome.png


iMDB
Title: Bhaiaji Superhit
Year: 2018
Runtime: 139 minutes
Votes: 80
Rating: 7.4/10
Language: Hindi
Director: Neeraj Pathak
Writing By: Neeraj Pathak,Neeraj Pathak,Aakash Pandey,Raaj Shaandilyaa,Shirish Sharma,Sumit Nijhawan,
Produced By: Fauzia Arshi,Manoj Chaturvedi,Sunny Deol,Chirag Dhariwal,Mahendra Dhariwal,Nishith Verma,
Music: Fauzia Arshi Anamik Chauhan Arbind Lyton Chandan Saxena Vijay Verma
Cast:
Sunny Deol as Bhaiaji
Preity Zinta as Sapna Dubey
Pankaj Tripathi as
Ameesha Patel as Mallika Kapoor
Mithun Chakraborty as
Arshad Warsi as Goldie Kapoor
Prakash Raj as
Lillete Dubey as
Shreyas Talpade as Tarun Porno Ghosh
Simran Kaur Mundi as
Trailers:
Bhaiaji Superhit - Movie Teaser Trailer



Details
Name:Bhaiaji Superhit (2018) 1080p UntoucheD WEB DL - AVC - AAC - DTOne Exclusive
Description:
Bhaiaji Superhit 
(2018)
1080p UntoucheD WEB DL - AVC - AAC - DTOne Exclusive



General
Format                                   : MPEG-4
Format profile                           : Base Media
Codec ID                                 : isom (isom/iso2/avc1/mp41)
File size                                : 2.02 GiB
Duration                                 : 2 h 6 min
Overall bit rate                         : 2 284 kb/s
Writing application                      : Lavf57.75.100

Video
ID                                       : 1
Format                                   : AVC
Format/Info                              : Advanced Video Codec
Format profile                           : High@L4
Format settings                          : CABAC / 4 Ref Frames
Format settings, CABAC                   : Yes
Format settings, ReFrames                : 4 frames
Format settings, GOP                     : M=4, N=50
Codec ID                                 : avc1
Codec ID/Info                            : Advanced Video Coding
Duration                                 : 2 h 6 min
Bit rate                                 : 2 200 kb/s
Width                                    : 1 920 pixels
Height                                   : 1 080 pixels
Display aspect ratio                     : 16:9
Frame rate mode                          : Constant
Frame rate                               : 25.000 FPS
Color space                              : YUV
Chroma subsampling                       : 4:2:0
Bit depth                                : 8 bits
Scan type                                : Progressive
Bits/(Pixel*Frame)                       : 0.042
Stream size                              : 1.93 GiB (96%)
Writing library                          : x264 core 152 r2854 e9a5903
Codec configuration box                  : avcC

Audio
ID                                       : 2
Format                                   : AAC LC
Format/Info                              : Advanced Audio Codec Low Complexity
Codec ID                                 : mp4a-40-2
Duration                                 : 2 h 6 min
Bit rate mode                            : Constant
Bit rate                                 : 96.0 kb/s
Channel(s)                               : 2 channels
Channel layout                           : L R
Sampling rate                            : 48.0 kHz
Frame rate                               : 46.875 FPS (1024 SPF)
Compression mode                         : Lossy
Stream size                              : 86.4 MiB (4%)
Default                                  : Yes
Alternate group                          : 1

Category:Movies > Bollywood
Lang:Hindi
Total Size:2.02 GB





|| Download This Movie Via Single Resumable Links Size: 2.02 GB ||

Direct-1 Google Drive | Direct-2 | Direct-3 |

Watch Online Click Here

Post a Comment

0 Comments