Fantastic Beasts 2 (2018) 720p HC-HDRip x264 -Line Auds [Hindi + Eng + Tamil + Telugu] - TMV


Poster


iMDB
Title: Fantastic Beasts: The Crimes of Grindelwald
Year: 2018
Runtime: 134 minutes
Votes: 8979
Rating: 7.5/10
Language: English
Tagline: The fate of one will change the future of all.
Director: David Yates
Writing By: J.K. Rowling,J.K. Rowling,
Produced By: Neil Blair,Danny Cohen,David Heyman,Steve Kloves,Tim Lewis,Josh Robertson,J.K. Rowling,Rick Senat,Lionel Wigram,
Music: James Newton Howard
Cast:
Johnny Depp as Grindelwald
Kevin Guthrie as Abernathy
Carmen Ejogo as Seraphina Picquery
Wolf Roth as Spielman
Eddie Redmayne as Newt Scamander
Zoƫ Kravitz as Leta Lestrange
Callum Turner as Theseus Scamander
Derek Riddell as Torquil Travers
Cornell John as Arnold Guzman
Ezra Miller as Credence Barebone
Trailers:
Official Trailer
Watch the Trailer
Final Trailer
Official Comic-Con Trailer
Teaser Trailer
Trailer Tease



Details
Name:Fantastic Beasts 2 (2018) 720p HC-HDRip x264 -Line Auds [Hindi + Tamil + Telugu + Eng] - TMV
Description:
Fantastic Beasts 2 (2018) 720p HC-HDRip x264 -Line Auds [Hindi + Tamil + Telugu + Eng] - TMV


General
Format                                   : Matroska
Format version                           : Version 4
File size                                : 1.04 GiB
Duration                                 : 2 h 13 min
Overall bit rate mode                    : Variable
Overall bit rate                         : 1 110 kb/s

Video
ID                                       : 1
Format                                   : AVC
Format/Info                              : Advanced Video Codec
Format profile                           : High@L3.1
Format settings                          : CABAC / 4 Ref Frames
Format settings, CABAC                   : Yes
Format settings, ReFrames                : 4 frames
Codec ID                                 : V_MPEG4/ISO/AVC
Duration                                 : 2 h 13 min
Bit rate                                 : 742 kb/s
Width                                    : 1 280 pixels
Height                                   : 528 pixels
Display aspect ratio                     : 2.40:1
Frame rate mode                          : Constant
Frame rate                               : 24.906 FPS
Color space                              : YUV
Chroma subsampling                       : 4:2:0
Bit depth                                : 8 bits
Scan type                                : Progressive
Bits/(Pixel*Frame)                       : 0.044
Stream size                              : 708 MiB (67%)
Writing library                          : x264 core 155 r2901 7d0ff22
Language                                 : English
Default                                  : Yes
Forced                                   : No

Audio #1
ID                                       : 2
Format                                   : MPEG Audio
Format version                           : Version 1
Format profile                           : Layer 3
Format settings                          : Joint stereo / MS Stereo
Codec ID                                 : A_MPEG/L3
Codec ID/Hint                            : MP3
Duration                                 : 2 h 13 min
Bit rate mode                            : Variable
Bit rate                                 : 96.0 kb/s
Channel(s)                               : 2 channels
Sampling rate                            : 44.1 kHz
Frame rate                               : 38.281 FPS (1152 SPF)
Compression mode                         : Lossy
Stream size                              : 92.7 MiB (9%)
Writing library                          : LAME3.99r
Encoding settings                        : -m j -V 4 -q 3 -lowpass 15.1 --abr 96
Language                                 : Telugu
Default                                  : Yes
Forced                                   : No

Audio #2
ID                                       : 3
Format                                   : MPEG Audio
Format version                           : Version 1
Format profile                           : Layer 3
Format settings                          : Joint stereo / MS Stereo
Codec ID                                 : A_MPEG/L3
Codec ID/Hint                            : MP3
Duration                                 : 2 h 13 min
Bit rate mode                            : Variable
Bit rate                                 : 85.4 kb/s
Nominal bit rate                         : 96.0 kb/s
Channel(s)                               : 2 channels
Sampling rate                            : 44.1 kHz
Frame rate                               : 38.281 FPS (1152 SPF)
Compression mode                         : Lossy
Stream size                              : 81.7 MiB (8%)
Writing library                          : LAME3.99r
Encoding settings                        : -m j -V 4 -q 3 -lowpass 15.1 --abr 96
Language                                 : Tamil
Default                                  : No
Forced                                   : No

Audio #3
ID                                       : 4
Format                                   : MPEG Audio
Format version                           : Version 1
Format profile                           : Layer 3
Format settings                          : Joint stereo / MS Stereo
Codec ID                                 : A_MPEG/L3
Codec ID/Hint                            : MP3
Duration                                 : 2 h 13 min
Bit rate mode                            : Variable
Bit rate                                 : 89.5 kb/s
Nominal bit rate                         : 96.0 kb/s
Channel(s)                               : 2 channels
Sampling rate                            : 44.1 kHz
Frame rate                               : 38.281 FPS (1152 SPF)
Compression mode                         : Lossy
Stream size                              : 85.6 MiB (8%)
Writing library                          : LAME3.99r
Encoding settings                        : -m j -V 4 -q 3 -lowpass 15.1 --abr 96
Language                                 : Hindi
Default                                  : No
Forced                                   : No

Audio #4
ID                                       : 5
Format                                   : MPEG Audio
Format version                           : Version 1
Format profile                           : Layer 3
Format settings                          : Joint stereo / MS Stereo
Codec ID                                 : A_MPEG/L3
Codec ID/Hint                            : MP3
Duration                                 : 2 h 13 min
Bit rate mode                            : Variable
Bit rate                                 : 96.0 kb/s
Channel(s)                               : 2 channels
Sampling rate                            : 44.1 kHz
Frame rate                               : 38.281 FPS (1152 SPF)
Compression mode                         : Lossy
Stream size                              : 90.3 MiB (9%)
Writing library                          : LAME3.99r
Encoding settings                        : -m j -V 4 -q 3 -lowpass 15.1 --abr 96
Language                                 : English
Default                                  : No
Forced                                   : No





Category:Movies > Pre-Releases
Lang:Hindi
Total Size:1.04 GB



|| Download This Movie Via Single Resumable Links Size: 1.04 GB ||

Direct-1 Google Drive | Direct-2 | Direct-3 |

Watch Online Click Here

Post a Comment

0 Comments