Game of Thrones S03E02 BluRay 720p x264 Dual Audio [Hindi + English] Esub 579MB [Khiladi786]


Poster


iMDB
Title: "Game of Thrones" Valar Dohaeris
Year: 2013
Votes: 18303
Rating: 8.9/10
Language: English
Director: Daniel Minahan
Writing By: George R.R. Martin,David Benioff,D.B. Weiss,David Benioff,D.B. Weiss,
Produced By: Ahmed Abounouom,David Benioff,Oliver Butler,Guymon Casady,Bernadette Caulfield,Frank Doelger,Vince Gerardis,George R.R. Martin,Lisa McAtackney,Erika Milutin,Christopher Newman,Greg Spence,Carolyn Strauss,Vanessa Taylor,D.B. Weiss,Annick Wolkan,Snorri ├×├│risson,
Music: Ramin Djawadi
Cast:
Peter Dinklage as Tyrion Lannister
Lena Headey as Cersei Lannister
Emilia Clarke as Daenerys Targaryen
Kit Harington as Jon Snow
Richard Madden as Robb Stark
Iain Glen as Jorah Mormont
Michelle Fairley as Catelyn Stark
Aidan Gillen as Petyr 'Littlefinger' Baelish
Charles Dance as Tywin Lannister
Liam Cunningham as Davos Seaworth



Details
Name:Game of Thrones S03E02 BluRay 720p x264 Dual Audio [Hindi + English] Esub 579MB [Khiladi786]
Description:
Game of Thrones S03E02 BluRay 720p x264 Dual Audio [Hindi + English] Esub 579MB [Khiladi786]

Show Has 18 + Scenes ... Mind It...






 

General
Format                                   : Matroska
Format version                           : Version 4
File size                                : 579 MiB
Duration                                 : 57 min 5 s
Overall bit rate                         : 1 417 kb/s

Video
ID                                       : 1
Format                                   : AVC
Format/Info                              : Advanced Video Codec
Format profile                           : High@L4.1
Format settings                          : CABAC / 8 Ref Frames
Format settings, CABAC                   : Yes
Format settings, ReFrames                : 8 frames
Codec ID                                 : V_MPEG4/ISO/AVC
Duration                                 : 57 min 5 s
Bit rate                                 : 1 146 kb/s
Width                                    : 1 280 pixels
Height                                   : 720 pixels
Display aspect ratio                     : 16:9
Frame rate mode                          : Constant
Frame rate                               : 23.976 (24000/1001) FPS
Color space                              : YUV
Chroma subsampling                       : 4:2:0
Bit depth                                : 8 bits
Scan type                                : Progressive
Bits/(Pixel*Frame)                       : 0.052
Stream size                              : 468 MiB (81%)
Writing library                          : x264 core 148 r2597 e86f3a1
Language                                 : English
Default                                  : Yes
Forced                                   : No

Audio #1
ID                                       : 2
Format                                   : AAC LC
Format/Info                              : Advanced Audio Codec Low Complexity
Codec ID                                 : A_AAC-2
Duration                                 : 57 min 5 s
Bit rate                                 : 132 kb/s
Channel(s)                               : 2 channels
Channel layout                           : L R
Sampling rate                            : 48.0 kHz
Frame rate                               : 46.875 FPS (1024 SPF)
Compression mode                         : Lossy
Stream size                              : 53.1 MiB (9%)
Language                                 : Hindi
Default                                  : Yes
Forced                                   : Yes

Audio #2
ID                                       : 3
Format                                   : AAC LC
Format/Info                              : Advanced Audio Codec Low Complexity
Codec ID                                 : A_AAC-2
Duration                                 : 57 min 5 s
Bit rate                                 : 138 kb/s
Channel(s)                               : 2 channels
Channel layout                           : L R
Sampling rate                            : 48.0 kHz
Frame rate                               : 46.875 FPS (1024 SPF)
Compression mode                         : Lossy
Delay relative to video                  : 9 ms
Stream size                              : 56.2 MiB (10%)
Language                                 : English
Default                                  : No
Forced                                   : No

Text
ID                                       : 4
Format                                   : UTF-8
Codec ID                                 : S_TEXT/UTF8
Codec ID/Info                            : UTF-8 Plain Text
Duration                                 : 55 min 7 s
Bit rate                                 : 65 b/s
Count of elements                        : 845
Stream size                              : 26.4 KiB (0%)
Language                                 : English
Default                                  : Yes
Forced                                   : No

Menu
00:00:00.000                             : en:00:00:00.000
00:01:54.114                             : en:00:01:54.114
00:06:30.599                             : en:00:06:30.599
00:14:34.207                             : en:00:14:34.207
00:24:23.504                             : en:00:24:23.504
00:36:06.498                             : en:00:36:06.498
00:46:24.448                             : en:00:46:24.448
00:55:45.759                             : en:00:55:45.759

[HBO ORG HINDI DUB]

Special Thanks To Khiladi786 For Hindi Audio
Please Note : 18+ Scene Is synced with English Audio

cFKKz.th.jpg cFOc3.th.jpg cFAFc.th.jpg cFg4M.th.jpg cFuqE.th.jpg cFoUv.th.jpg
Category:Movies > Hollywood Dub
Lang:Hindi
Total Size:579.11 MB



|| Download This Tv Show Via Single Resumable Links Size: 579 MB ||

Direct-1 Google Drive | Direct-2 | Direct-3 |

Watch Online Click Here

Post a Comment

0 Comments